Genre: Animation \ Comedy \ Family Age Rating: PG Quality: HDRip Rating: 6.3
 The Boss Baby (2017)
IMDB User Ratings: 6.3 (3802 votes)
The Boss Baby 2017 Cover
Director Tom McGrath Music Steve MazzaroHans Zimmer
Year 2017 Runtime 1 Hour 37 Minutes
Country USAProducer Tom McGrath
IMDb Ratings: 6.3 Languages English
Genres Animation, Comedy, Family CastAlec Baldwin, Steve Buscemi, Jimmy Kimmel, Lisa Kudrow, Tobey Maguire, Miles Christopher Bakshi
 Summary
A new baby's arrival impacts a family, told from the point of view of a delightfully unreliable narrator -- a wildly imaginative 7-year-old named Tim. The most unusual Boss Baby (Alec Baldwin) arrives at Tim's home in a taxi, wearing a suit and carrying a briefcase. The instant sibling rivalry must soon be put aside when Tim discovers that Boss Baby is actually a spy on a secret mission, and only he can help thwart a dastardly plot that involves an epic battle between puppies and babies.


The Boss Baby (2017) 720p WEBHDRip x264 Eng-Subs 890MB [Sharmi]



Code:
IMDB:- http://www.imdb.com/title/tt3874544
Plot:-

A suit-wearing briefcase-carrying baby pairs up with his seven-year old brother to stop the dastardly plot of the CEO of Puppy Co.
Director: Tom McGrath
Writers: Michael McCullers, Marla Frazee (based on the book by)
Stars: Alec Baldwin, Steve Buscemi, Jimmy Kimmel

Format : Matroska
Format version : Version 4 / Version 2
File size : 893 MiB
Duration : 1 h 37 min
Overall bit rate : 1 276 kb/s

Video
ID : 1
Format : AVC
Format/Info : Advanced Video Codec
Format profile : [email protected]
Format settings, CABAC : Yes
Format settings, ReFrames : 4 frames
Codec ID : V_MPEG4/ISO/AVC
Duration : 1 h 37 min
Bit rate : 1 152 kb/s
Width : 1 280 pixels
Height : 542 pixels
Display aspect ratio : 2.35:1
Frame rate mode : Constant
Frame rate : 23.976 (24000/1001) FPS
Color space : YUV
Chroma subsampling : 4:2:0
Bit depth : 8 bits
Scan type : Progressive
Bits/(Pixel*Frame) : 0.069
Stream size : 803 MiB (90%)
Title : -Sharmi-
Writing library : x264 core 142 r2491 24e4fed

Audio
ID : 2
Format : AAC
Format/Info : Advanced Audio Codec
Format profile : LC
Codec ID : A_AAC
Duration : 1 h 37 min
Bit rate : 128 kb/s
Channel(s) : 2 channels
Channel positions : Front: L R
Sampling rate : 48.0 kHz
Frame rate : 46.875 FPS (1024 spf)
Compression mode : Lossy
Stream size : 89.3 MiB (10%)
Title : -Sharmi-
Language : English
Default : Yes
Forced : No
Screenshots:- Click to Enlarge:-



ENGLISH SUBTITLE:-
Code:
http://clicknupload.link/t48k207u3b9g
DIRECT DOWNLOAD FAST:-
Code:
http://clicknupload.link/p5cly671p8lq
(OR)
http://rapidgator.net/file/b0f7f2cd41df44184a7e62aaec7e1e90/The.Boss.Baby.2017.720p.WEBHDRip.mkv.html
WATCH ONLINE/ DOWNLOAD:-With Subs
Code:
http://thevideo.me/0no7emxdazxy
http://estream.to/gkshquywq0w5.html
http://vidup.me/qzbv8whlr39h
http://streamcrypt.net/flashx.tv/6dfd460e480a68744bdbec0187abf9687e5964cb61cc1be6d63ba1efe18bdf3f
http://www.flashx.tv/cegqxa0owt4n.html
If you like my post, don't forget to say Thanks.